#TITLE:Lies;
#SUBTITLE:;
#ARTIST:Big Bang;
#TITLETRANSLIT:Lies;
#SUBTITLETRANSLIT:;
#ARTISTTRANSLIT:Big Bang;
#CREDIT:;
#BANNER:Lies-bn.png;
#BACKGROUND:Lies-bg.png;
#LYRICSPATH:;
#CDTITLE:pm4cd.png;
#MUSIC:Lies.mp3;
#OFFSET:1.460;
#SAMPLESTART:63.820;
#SAMPLELENGTH:20.000;
#SELECTABLE:YES;
#BPMS:0.000=125.000;
#STOPS:;
#BGCHANGES:0.000=Big Bang -- Lies MV.avi=1.000=0=0=1,
465.000=Lies-bg.png=1.000=0=0=1,
99999=-nosongbg-=1.000=0=0=0 // don't automatically add -songbackground-
;
// cache tags:
#FIRSTBEAT:9.000;
#LASTBEAT:465.000;
#SONGFILENAME:Songs/Music V.I.P ^_^/Lies/Lies.sm;
#HASMUSIC:1;
#HASBANNER:1;
#MUSICLENGTH:229.224;
// end cache tags

//---------------dance-single - ----------------
#NOTES:
     dance-single:
     :
     Hard:
     10:
     0.660,1.000,1.000,0.170,0.212,733.000,285.000,39.000,0.000,38.000:
0000
0000
0000
0000
,
0000
0000
0000
0000
,
0000
0000
0101
0000
1000
0010
0000
0100
,
0001
0000
1100
0000
0000
0010
0000
0000
,
0100
0001
2020
0000
0000
0000
0000
0000
,
0000
0000
3230
0000
0000
0000
0310
0001
,
0100
1000
0011
0000
0100
0001
0000
0010
,
1000
0000
0110
0000
0001
0100
0001
0000
,
1000
0010
0202
0000
0000
0000
0000
0000
,
0000
0323
0000
0000
,
0000
0000
1030
0000
0001
0010
0000
1000
,
0200
0000
0002
0000
0000
2303
0000
0000
,
3010
0100
0002
0000
0000
0000
0000
0000
,
0000
0000
0023
0000
0000
0000
1030
0100
,
0001
0010
1000
0000
0100
0001
0000
0010
,
1000
0000
0001
0000
0010
1000
0000
0000
,
0010
0001
2000
0000
0000
0000
0000
0000
,
0000
3100
1100
1100
,
0011
0011
0011
1001
,
1001
1001
0110
0110
,
0110
0210
1010
1010
,
1001
0000
1301
0000
0101
0000
1001
0010
,
0101
0000
1000
0000
0011
0000
0000
0000
0110
0000
0001
0000
1010
0100
0000
0010
,
0101
0000
0000
0010
1100
0000
0000
0001
0110
1000
0000
0000
0101
0000
0000
0000
,
1010
0100
1002
0000
0110
0000
1010
0000
,
0110
1013
0011
0110
,
0011
0000
0110
0000
1100
0010
0101
1000
,
0011
0000
0101
0000
0110
0001
1010
0000
,
0100
0010
0102
0000
1010
0000
0110
0000
,
0110
0000
0113
0000
1001
0000
1100
0010
,
0101
0000
1000
0000
0110
0000
0000
0000
0011
0000
1000
0000
0101
0010
0000
1000
,
0110
0000
0000
0001
1100
0000
0000
0010
0101
1000
0000
0000
0011
0000
0000
0000
,
1100
0001
0210
0000
1001
0000
0011
0000
,
1310
0000
0000
0000
0001
0001
0001
0001
0001
0001
0001
0001
0101
0100
0100
0100
,
0100
0100
0100
0100
1100
0000
0010
0000
1001
0000
0100
0000
1010
0000
0001
0000
,
0110
1000
0011
0100
1010
0001
0110
1000
,
0101
1000
0011
0100
1010
0001
0110
1000
,
0101
0010
1100
0001
1010
0100
0011
1000
,
0110
0000
0001
0000
1010
0000
0100
0000
1001
0000
0010
0000
0101
1000
0000
0010
,
0101
0000
0000
1000
0110
0000
0000
0100
1010
0001
0000
0000
0110
0000
1000
0000
,
0101
0010
2001
0100
0011
0010
0101
0010
,
0011
0100
0011
0100
3010
0100
1010
0001
,
0110
0001
1010
0100
1001
0010
1100
0001
,
0110
1000
0011
0100
1010
0001
0110
1000
,
0011
0100
1002
0100
1010
0100
1010
0100
,
0110
1000
0013
0100
1010
0100
0011
1000
,
0110
0000
0001
0000
1010
0000
0100
0000
1001
0000
0010
0000
0101
1000
0000
0010
,
0101
0000
0000
1000
0110
0000
0000
0100
1010
0001
0000
0000
0110
0000
0000
0000
,
0101
1000
0110
1000
0011
0100
1010
0001
,
0110
1000
0101
0010
1100
0001
1010
0100
,
0011
0000
1000
0000
0100
0001
0000
0010
,
1000
0000
0100
0000
0000
0001
0000
0000
,
0010
1000
0200
0000
0000
0000
0000
0000
,
0000
0000
0000
0000
0000
0000
0301
1000
,
0010
0100
0001
0000
1000
0010
0000
0001
,
0100
0000
1000
0000
0010
0100
0000
0000
,
0001
1000
0020
0000
0000
0000
0000
0000
,
0000
0000
0000
0000
1030
1000
1000
1000
1000
1000
1000
1000
1001
0001
0001
0001
,
0001
0001
0001
0001
1001
0000
0010
0000
0101
0000
1000
0000
0110
0000
0001
0000
,
1010
0100
0011
1000
0110
0001
1010
0100
,
0011
0100
1020
0100
1001
0100
1001
0100
,
0101
1000
0031
0100
1001
0100
0011
1000
,
0110
0000
0001
0000
1010
0000
0100
0000
1001
0000
0010
0000
0101
1000
0000
0010
,
0101
0000
0000
1000
0110
0000
0000
0100
1010
0001
0000
0000
0110
0000
0000
0000
,
1001
0100
2001
0100
0010
0001
0100
0001
,
0010
0000
0100
0000
3001
0010
0100
0010
1000
0001
0100
0010
1000
0100
0001
0010
,
0100
1000
0010
0001
1100
0000
0010
0000
1001
0000
0100
0000
1010
0000
0001
0000
,
0110
1000
0011
1000
0110
0001
1010
0100
,
0011
1000
0012
0100
1010
0100
1010
0100
,
0110
1000
0013
0100
1010
0100
0011
1000
,
0110
0000
0001
0000
1010
0000
0100
0000
1001
0000
0010
0000
0101
1000
0000
0010
,
0101
0000
0000
1000
0110
0000
0000
0100
1010
0001
0000
0000
0110
0000
0000
0000
,
0101
1000
0110
0001
1010
0100
0011
0100
,
1010
0001
0110
0001
1100
0010
0101
1000
,
0110
0001
1100
0010
1001
0100
1010
0001
,
0110
1000
0011
1000
0110
0001
1010
0100
,
0011
1000
0010
0100
1010
0001
1010
0001
,
0110
1000
0100
0010
0101
1000
0011
0100
,
1010
0000
0001
0000
0110
0000
1000
0000
0101
0000
0010
0000
1001
0100
0000
0010
,
0101
0000
0000
1000
0110
0000
0000
0100
1010
0001
0000
0000
0110
0000
0000
0000
,
0101
1000
0011
0100
1010
0001
0110
1000
,
0101
0010
1100
0010
0101
1000
0110
0001
,
1010
0100
0002
0000
0000
0000
0000
0000
,
0000
0023
0000
0230
,
0000
2300
0000
0000
,
0000
3200
0000
0000
,
0000
0321
0000
0000
,
0000
0032
0000
0023
,
0000
0230
0000
0000
,
0000
2300
0000
0000
,
0000
0000
3110
0000
0001
0100
0000
0010
,
1000
0000
0010
0000
0000
0001
0000
0000
,
1000
0100
0020
0000
0000
0000
0000
0000
,
0000
0000
0230
0000
0000
0000
0310
1000
,
0100
0010
0102
0000
0010
0100
0000
1000
,
0100
0000
0023
0000
1000
0001
0000
0000
,
1000
0000
0100
0000
1131
0000
0010
0000
1100
0000
0010
0000
0101
0001
0001
0001
,
0001
0000
0001
0000
0001
0000
0001
0000
1001
0100
0010
0001
0010
0100
1000
0100
0010
0001
0010
0100
1000
0100
0010
0001
0010
0100
1000
0100
0010
0001
0010
0100
,
1000
0100
0010
0001
0010
0100
1000
0100
1011
0000
0000
0000
0010
0000
0000
0000
1001
0000
0000
0000
0100
0000
0000
0000
1010
0000
0000
0000
0001
0000
0000
0000
,
0110
1000
0011
1000
0110
0001
1010
0100
,
0011
1000
0012
0100
1010
0100
1010
0100
,
0110
1000
0013
0100
1010
0100
0011
1000
,
0110
0000
0001
0000
1010
0000
0100
0000
1001
0000
0010
0000
0101
1000
0000
0010
,
0101
0000
0000
1000
0110
0000
0000
0100
1010
0001
0000
0000
0110
0000
0000
0000
,
0101
1000
0110
0001
1010
0100
0011
0100
,
1010
0001
0110
0001
1100
0010
0101
1000
,
0110
0001
1100
0010
1001
0100
1010
0001
,
0110
1000
0011
1000
0110
0001
1010
0100
,
0011
1000
0010
0100
1010
0001
1010
0001
,
0110
1000
0100
0010
0101
1000
0011
0100
,
1010
0000
0001
0000
0110
0000
1000
0000
0101
0000
0010
0000
1001
0100
0000
0010
,
0101
0000
0000
1000
0110
0000
0000
0100
1010
0001
0000
0000
0110
0000
0000
0000
,
0101
1000
0011
0100
1010
0001
0110
1000
,
0101
0010
1100
0010
0101
1000
0110
0001
,
1010
0100
0002
0000
0000
0000
0000
0000
,
0000
0000
0000
0000
,
0000
0003
0000
0000
;
